Hlavní navigace

Názory k článku KDE přesouvá síly na budoucí Plasmu 5.25, Qualcomm ukazuje 8k HDR video z telefonu

  • 8. 5. 2022 8:16

    PEAK

    yt-dlp --write-thumbnail --xattrs https://youtu.be/4ChhP13pO7A

    Input #0, matroska,webm, from 'Professional-quality 8K HDR video with Snapdragon 8 Gen 1 [2THGO7iU6cQ].mkv':
    Metadata:
    COMPATIBLE_BRANDS: iso6av01mp41
    MAJOR_BRAND : dash
    MINOR_VERSION : 0
    ENCODER : Lavf59.23.100
    Duration: 00:01:37.78, start: -0.007000, bitrate: 49314 kb/s
    Stream #0:0: Video: av1 (Main), yuv420p10le(tv, bt2020nc/bt20­20/smpte2084), 7680x4320, 24 fps, 24 tbr, 1k tbn (default)
    Metadata:
    HANDLER_NAME : ISO Media file produced by Google Inc.
    VENDOR_ID : [0][0][0][0]
    DURATION : 00:01:37.750000000
    Side data:
    Mastering Display Metadata, has_primaries:1 has_luminance:1 r(0.6800,0.3200) g(0.2650,0.6900) b(0.1500 0.0600) wp(0.3127, 0.3290) min_luminance=0­.005000, max_luminance=1000­.000000
    Stream #0:1(eng): Audio: opus, 48000 Hz, stereo, fltp (default)
    Metadata:
    DURATION : 00:01:37.781000000

    8. 5. 2022, 08:19 editováno autorem komentáře